[MagicStar] Hatsukoi no Akuma EP09 [WEBDL] [1080p] [HULU] [JPN_SUB] :: Nyaa ISS

[MagicStar] Hatsukoi no Akuma EP09 [WEBDL] [1080p] [HULU] [JPN_SUB]

Category:
Date:
2022-09-21 17:59 UTC
Submitter:
Seeders:
7
Information:
Leechers:
2
File size:
1.3 GiB
Completed:
692
Info hash:
1af50c909efdfca2dfc6978ecbb85f23c420acef
HD 1080p from HULU JAPAN. ![alt text](https://i.ibb.co/5sqG9tg/f072e204-0eda-4b7e-948e-802100616b39b.jpg) ![alt text](https://i.ibb.co/drZf7nr/Hatsukoi-no-Akuma-EP09-1080p-HULU-WEB-DL-AAC2-0-H-264-Magic-Star-mkv.jpg) ``` General Unique ID : 246299450974863807006703797815212349452 (0xB94B8C7D9F9E40D1234297F7F725980C) Complete name : Hatsukoi.no.Akuma.EP09.1080p.HULU.WEB-DL.AAC2.0.H.264-MagicStar.mkv Format : Matroska Format version : Version 4 File size : 1.29 GiB Duration : 45 min 28 s Overall bit rate : 4 069 kb/s Encoded date : UTC 2022-09-19 20:28:04 Writing application : mkvmerge v50.0.0 ('Awakenings') 64-bit Writing library : libebml v1.4.0 + libmatroska v1.6.2 Cover : Yes Attachments : cover.png Video ID : 1 Format : AVC Format/Info : Advanced Video Codec Format profile : [email protected] Format settings : CABAC / 4 Ref Frames Format settings, CABAC : Yes Format settings, ReFrames : 4 frames Codec ID : V_MPEG4/ISO/AVC Duration : 45 min 28 s Bit rate : 3 941 kb/s Width : 1 920 pixels Height : 1 080 pixels Display aspect ratio : 16:9 Frame rate mode : Constant Frame rate : 29.970 (29970/1000) FPS Original frame rate : 29.970 (30000/1001) FPS Color space : YUV Chroma subsampling : 4:2:0 Bit depth : 8 bits Scan type : Progressive Bits/(Pixel*Frame) : 0.063 Stream size : 1.25 GiB (97%) Default : Yes Forced : No Color range : Limited Color primaries : BT.709 Transfer characteristics : BT.709 Matrix coefficients : BT.709 Audio ID : 2 Format : AAC LC Format/Info : Advanced Audio Codec Low Complexity Codec ID : A_AAC-2 Duration : 45 min 28 s Bit rate : 125 kb/s Channel(s) : 2 channels Channel layout : L R Sampling rate : 48.0 kHz Frame rate : 46.875 FPS (1024 SPF) Compression mode : Lossy Stream size : 40.8 MiB (3%) Language : Japanese Default : Yes Forced : No ```

File list