[MagicStar] First Penguin! EP09 [WEBDL] [HULU] [JPN_SUB] :: Nyaa ISS

[MagicStar] First Penguin! EP09 [WEBDL] [HULU] [JPN_SUB]

Category:
Date:
2022-12-02 04:59 UTC
Submitter:
Seeders:
3
Information:
Leechers:
0
File size:
1.5 GiB
Completed:
971
Info hash:
83cf3fc1e6b6e78cf2a1f19bbf3364f3171026bb
HD 1080p from HULU JAPAN. ![alt text](https://i.ibb.co/mSVWT0P/a1430440-8932-4edb-b97d-e70a99ac6cf7b.jpg) ![alt text](https://i.ibb.co/n0BydWN/First-Penguin-EP09-1080p-HULU-WEB-DL-AAC2-0-H-264-Magic-Star-mkv.jpg) ``` General Unique ID : 337400141238453812464236909698837072516 (0xFDD4E74D6CCE47341221882E08C74A84) Complete name : First.Penguin.EP09.1080p.HULU.WEB-DL.AAC2.0.H.264-MagicStar.mkv Format : Matroska Format version : Version 4 File size : 1.45 GiB Duration : 51 min 4 s Overall bit rate : 4 068 kb/s Encoded date : UTC 2022-12-02 00:06:29 Writing application : mkvmerge v50.0.0 ('Awakenings') 64-bit Writing library : libebml v1.4.0 + libmatroska v1.6.2 Cover : Yes Attachments : cover.png Video ID : 1 Format : AVC Format/Info : Advanced Video Codec Format profile : [email protected] Format settings : CABAC / 4 Ref Frames Format settings, CABAC : Yes Format settings, Reference fra : 4 frames Codec ID : V_MPEG4/ISO/AVC Duration : 51 min 4 s Bit rate : 3 940 kb/s Width : 1 920 pixels Height : 1 080 pixels Display aspect ratio : 16:9 Frame rate mode : Constant Frame rate : 29.970 (29970/1000) FPS Original frame rate : 29.970 (30000/1001) FPS Color space : YUV Chroma subsampling : 4:2:0 Bit depth : 8 bits Scan type : Progressive Bits/(Pixel*Frame) : 0.063 Stream size : 1.41 GiB (97%) Default : Yes Forced : No Color range : Limited Color primaries : BT.709 Transfer characteristics : BT.709 Matrix coefficients : BT.709 Audio ID : 2 Format : AAC LC Format/Info : Advanced Audio Codec Low Complexity Codec ID : A_AAC-2 Duration : 51 min 4 s Bit rate : 125 kb/s Channel(s) : 2 channels Channel layout : L R Sampling rate : 48.0 kHz Frame rate : 46.875 FPS (1024 SPF) Compression mode : Lossy Stream size : 45.8 MiB (3%) Language : Japanese Default : Yes Forced : No ```

File list