[MagicStar] xxxHOLiC 2022 [WEBDL] [1080p] [AMZN] :: Nyaa ISS

[MagicStar] xxxHOLiC 2022 [WEBDL] [1080p] [AMZN]

Category:
Date:
2022-12-02 05:14 UTC
Submitter:
Seeders:
6
Information:
Leechers:
0
File size:
6.6 GiB
Completed:
618
Info hash:
9d39e064baa35accc37c43c4fbeff5e4a7ebf68c
HD 1080p from Prime Video. Use CBR bitrate mode. ************** We are planning to upload all prime video japan Dramas and Movies, we need your Support! ************** Support Us Ali (Zhifubao / QR code): https://i.ibb.co/FWV2ggm/1660626347125.png PayPalMe: https://www.paypal.com/paypalme/sakuragikenji ************** ![alt text](https://i.ibb.co/0J9M74Q/A1-HIg-Ne7m-QL.jpg) ![alt text](https://i.ibb.co/vzxMxF2/xxx-HOLi-C-2022-1080p-AMZN-WEB-DL-DDP5-1-H-264-Magic-Star-mkv.jpg) ``` General Unique ID : 52004908770250008198152424178286173883 (0x271FC7F688F3B9137A6BAFA200459EBB) Complete name : xxx.HOLiC.2022.1080p.AMZN.WEB-DL.DDP5.1.H.264-MagicStar.mkv Format : Matroska Format version : Version 4 File size : 6.55 GiB Duration : 1 h 49 min Overall bit rate mode : Constant Overall bit rate : 8 544 kb/s Encoded date : UTC 2022-12-02 03:48:48 Writing application : mkvmerge v50.0.0 ('Awakenings') 64-bit Writing library : libebml v1.4.0 + libmatroska v1.6.2 Cover : Yes Attachments : cover.png Video ID : 1 Format : AVC Format/Info : Advanced Video Codec Format profile : [email protected] Format settings : CABAC / 4 Ref Frames Format settings, CABAC : Yes Format settings, Reference fra : 4 frames Codec ID : V_MPEG4/ISO/AVC Duration : 1 h 49 min Bit rate mode : Constant Bit rate : 7 902 kb/s Nominal bit rate : 10 000 kb/s Width : 1 920 pixels Height : 1 040 pixels Display aspect ratio : 1.85:1 Frame rate mode : Constant Frame rate : 23.976 (24000/1001) FPS Color space : YUV Chroma subsampling : 4:2:0 Bit depth : 8 bits Scan type : Progressive Bits/(Pixel*Frame) : 0.165 Stream size : 6.06 GiB (92%) Default : Yes Forced : No Color range : Limited Color primaries : BT.709 Transfer characteristics : BT.709 Matrix coefficients : BT.709 Audio ID : 2 Format : E-AC-3 Format/Info : Enhanced AC-3 Commercial name : Dolby Digital Plus Codec ID : A_EAC3 Duration : 1 h 49 min Bit rate mode : Constant Bit rate : 640 kb/s Channel(s) : 6 channels Channel layout : L R C LFE Ls Rs Sampling rate : 48.0 kHz Frame rate : 31.250 FPS (1536 SPF) Compression mode : Lossy Stream size : 503 MiB (7%) Language : Japanese Service kind : Complete Main Default : Yes Forced : No ```

File list