[MagicStar] Ciguatera EP07 [WEBDL] [1080p] :: Nyaa ISS

[MagicStar] Ciguatera EP07 [WEBDL] [1080p]

Category:
Date:
2023-05-22 06:04 UTC
Submitter:
Seeders:
2
Information:
Leechers:
1
File size:
622.7 MiB
Completed:
835
Info hash:
3d193164576ccdac5f967b8b4a7c94183464a81e
HD 1080p from TVer. ![alt text](https://i.ibb.co/9s0mBt5/96643478640.jpg) ![alt text](https://i.ibb.co/F7YbrVs/Magic-Star-Ciguatera-EP07-WEBDL-1080p-mkv.jpg) ``` General Unique ID : 268968903642944817876420353036487185058 (0xCA5986CCDD7F5F0F539D64EF92E352A2) Complete name : [MagicStar] Ciguatera EP07 [WEBDL] [1080p].mkv Format : Matroska Format version : Version 4 File size : 623 MiB Duration : 30 min 18 s Overall bit rate mode : Variable Overall bit rate : 2 873 kb/s Encoded date : UTC 2023-05-22 02:20:32 Writing application : mkvmerge v50.0.0 ('Awakenings') 64-bit Writing library : libebml v1.4.0 + libmatroska v1.6.2 Cover : Yes Attachments : cover.jpg Video ID : 1 Format : AVC Format/Info : Advanced Video Codec Format profile : High@L4 Format settings : CABAC / 4 Ref Frames Format settings, CABAC : Yes Format settings, Reference fra : 4 frames Codec ID : V_MPEG4/ISO/AVC Duration : 30 min 18 s Bit rate mode : Variable Bit rate : 2 675 kb/s Maximum bit rate : 4 014 kb/s Width : 1 920 pixels Height : 1 080 pixels Display aspect ratio : 16:9 Frame rate mode : Constant Frame rate : 29.970 (29970/1000) FPS Original frame rate : 29.970 (30000/1001) FPS Color space : YUV Chroma subsampling : 4:2:0 Bit depth : 8 bits Scan type : Progressive Bits/(Pixel*Frame) : 0.043 Stream size : 580 MiB (93%) Default : Yes Forced : No Color range : Limited Color primaries : BT.709 Transfer characteristics : BT.709 Matrix coefficients : BT.709 Audio ID : 2 Format : AAC LC Format/Info : Advanced Audio Codec Low Complexity Codec ID : A_AAC-2 Duration : 30 min 18 s Bit rate : 192 kb/s Channel(s) : 2 channels Channel layout : L R Sampling rate : 48.0 kHz Frame rate : 46.875 FPS (1024 SPF) Compression mode : Lossy Stream size : 41.5 MiB (7%) Title : 日本語 [オリジナル] Language : Japanese Default : Yes Forced : No ```

File list