[MagicStar] Omukae Shibuya-kun EP01 [WEBDL] [1080p] [FOD] [JPN_SUB] :: Nyaa ISS

[MagicStar] Omukae Shibuya-kun EP01 [WEBDL] [1080p] [FOD] [JPN_SUB]

Category:
Date:
2024-04-03 03:03 UTC
Submitter:
Seeders:
10
Information:
Leechers:
0
File size:
727.9 MiB
Completed:
407
Info hash:
0b0fb19d0e4961cf0589e0466cfde8bcca19babd
HD 1080p from FOD. Japanese subtitles added. ************** Support Us Ali (Zhifubao / QR code): https://i.ibb.co/FWV2ggm/1660626347125.png PayPalMe: https://www.paypal.com/paypalme/sakuragikenji ETH (ERC20): 0xea3286E176099E8C9aBaf25A0edf231374C04E89 USDT (BTC / OMNI): 1Lemw6fu5vG3NdvWGxDxsPX7T7yUb3rNzu ************** ![alt text](https://i.ibb.co/vkWtJB6/SID0100236.jpg) ![alt text](https://i.ibb.co/hC9JPbk/Omukae-Shibuya-kun-EP01-1080p-FOD-WEB-DL-AAC2-0-H-264-Magic-Star-mkv.jpg) ``` General Unique ID : 33044892406599283492056412717121294512 (0x18DC36FBC9EFB02C058FA9AEB2E450B0) Complete name : Omukae.Shibuya.kun.EP01.1080p.FOD.WEB-DL.AAC2.0.H.264-MagicStar.mkv Format : Matroska Format version : Version 4 File size : 728 MiB Duration : 23 min 14 s Overall bit rate mode : Variable Overall bit rate : 4 377 kb/s Frame rate : 29.970 FPS Encoded date : 2024-04-03 02:32:41 UTC Writing application : mkvmerge v50.0.0 ('Awakenings') 64-bit Writing library : libebml v1.4.0 + libmatroska v1.6.2 Video ID : 1 Format : AVC Format/Info : Advanced Video Codec Format profile : [email protected] Format settings : CABAC / 2 Ref Frames Format settings, CABAC : Yes Format settings, Reference fra : 2 frames Codec ID : V_MPEG4/ISO/AVC Duration : 23 min 14 s Bit rate mode : Variable Bit rate : 4 182 kb/s Maximum bit rate : 15.0 Mb/s Width : 1 920 pixels Height : 1 080 pixels Display aspect ratio : 16:9 Frame rate mode : Constant Frame rate : 29.970 (29970/1000) FPS Original frame rate : 29.970 (30000/1001) FPS Color space : YUV Chroma subsampling : 4:2:0 Bit depth : 8 bits Scan type : Progressive Bits/(Pixel*Frame) : 0.067 Stream size : 695 MiB (96%) Default : Yes Forced : No Color range : Limited Color primaries : BT.709 Transfer characteristics : BT.709 Matrix coefficients : BT.709 Audio ID : 2 Format : AAC LC Format/Info : Advanced Audio Codec Low Complexity Codec ID : A_AAC-2 Duration : 23 min 14 s Bit rate : 192 kb/s Channel(s) : 2 channels Channel layout : L R Sampling rate : 48.0 kHz Frame rate : 46.875 FPS (1024 SPF) Compression mode : Lossy Stream size : 31.9 MiB (4%) Title : 日本語 [オリジナル] Language : Japanese Default : Yes Forced : No ```

File list