[Anime Land] Bursting Point (2023) (BDRip 1080p HEVC EAC3) CHINESE [F6A71D77].mkv :: Nyaa ISS

[Anime Land] Bursting Point (2023) (BDRip 1080p HEVC EAC3) CHINESE [F6A71D77].mkv

Category:
Date:
2024-04-03 05:56 UTC
Submitter:
Seeders:
4
Information:
No information.
Leechers:
0
File size:
6.9 GiB
Completed:
292
Info hash:
a45458393494540d5c8aa0d0df4550b110f61809
![alt text](https://m.media-amazon.com/images/M/MV5BZWE0ZWQxNWQtMzMwMi00ZTc0LTk1ZWYtZGM2NjgwODY5MDBjXkEyXkFqcGdeQXVyMTcxNDI2ODk0._V1_FMjpg_UX1000_.jpg "Logo Title Text 1") ![alt text](https://media.fotki.com/2v2eFrkALxBcWUV.jpg "Logo Title Text 1") ![alt text](https://tu.totheglory.im/files/72/Burstingx265b.png "Logo Title Text 1") ![alt text](https://tu.totheglory.im/files/72/Burstingx265c.png "Logo Title Text 1") ![alt text](https://tu.totheglory.im/files/72/Burstingx265d.png "Logo Title Text 1") ![alt text](https://tu.totheglory.im/files/72/Burstingx265e.png "Logo Title Text 1") ![alt text](https://tu.totheglory.im/files/72/Burstingx265h.png "Logo Title Text 1") ```javascript General Unique ID : 108080030525511840710114535841520088820 (0x514F74EB777AD061DEFD4BD21732F6F4) Complete name : [Anime Land] Bursting Point (2023) (BDRip 1080p HEVC EAC3) CHINESE [F6A71D77].mkv Format : Matroska Format version : Version 4 File size : 6.95 GiB Duration : 2 h 18 min Overall bit rate : 7 203 kb/s Frame rate : 24.000 FPS Movie name : [Anime Land] Bursting Point (2023) (BDRip 1080p HEVC EAC3) CHINESE [Encode By Omar] Encoded date : 2024-04-03 05:34:10 UTC Writing application : mkvmerge v83.0 ('Circle Of Friends') 64-bit Writing library : libebml v1.4.5 + libmatroska v1.7.1 Video ID : 1 Format : HEVC Format/Info : High Efficiency Video Coding Format profile : Main [email protected]@Main Codec ID : V_MPEGH/ISO/HEVC Duration : 2 h 18 min Bit rate : 6 145 kb/s Width : 1 920 pixels Height : 808 pixels Display aspect ratio : 2.40:1 Frame rate mode : Constant Frame rate : 24.000 FPS Color space : YUV Chroma subsampling : 4:2:0 Bit depth : 10 bits Bits/(Pixel*Frame) : 0.165 Stream size : 5.93 GiB (85%) Title : BDRip By Omar Writing library : x265 3.5+104-47c18bf12:[Windows][GCC 13.1.0][64 bit] 10bit Encoding settings : cpuid=1111039 / frame-threads=5 / numa-pools=32,32 / wpp / no-pmode / no-pme / no-psnr / no-ssim / log-level=2 / input-csp=1 / input-res=1920x808 / interlace=0 / total-frames=198842 / level-idc=51 / high-tier=1 / uhd-bd=0 / ref=5 / no-allow-non-conformance / no-repeat-headers / annexb / no-aud / no-eob / no-eos / no-hrd / info / hash=0 / temporal-layers=0 / open-gop / min-keyint=24 / keyint=250 / gop-lookahead=0 / bframes=16 / b-adapt=2 / b-pyramid / bframe-bias=0 / rc-lookahead=40 / lookahead-slices=0 / scenecut=40 / no-hist-scenecut / radl=0 / no-splice / no-intra-refresh / ctu=64 / min-cu-size=8 / rect / amp / max-tu-size=32 / tu-inter-depth=3 / tu-intra-depth=3 / limit-tu=4 / rdoq-level=2 / dynamic-rd=0.00 / no-ssim-rd / signhide / no-tskip / nr-intra=0 / nr-inter=0 / no-constrained-intra / strong-intra-smoothing / max-merge=4 / limit-refs=1 / limit-modes / me=3 / subme=4 / merange=57 / temporal-mvp / no-frame-dup / no-hme / weightp / weightb / no-analyze-src-pics / deblock=-3:-3 / sao / no-sao-non-deblock / rd=6 / selective-sao=4 / no-early-skip / rskip / no-fast-intra / no-tskip-fast / no-cu-lossless / b-intra / no-splitrd-skip / rdpenalty=0 / psy-rd=2.00 / psy-rdoq=1.00 / no-rd-refine / no-lossless / cbqpoffs=0 / crqpoffs=0 / rc=abr / bitrate=6144 / qcomp=0.60 / qpstep=4 / stats-write=0 / stats-read=2 / cplxblur=20.0 / qblur=0.5 / ipratio=1.40 / pbratio=1.30 / aq-mode=2 / aq-strength=1.00 / cutree / zone-count=0 / no-strict-cbr / qg-size=32 / no-rc-grain / qpmax=69 / qpmin=0 / no-const-vbv / sar=0 / overscan=0 / videoformat=5 / range=0 / colorprim=2 / transfer=2 / colormatrix=2 / chromaloc=0 / display-window=0 / cll=0,0 / min-luma=0 / max-luma=1023 / log2-max-poc-lsb=8 / vui-timing-info / vui-hrd-info / slices=1 / no-opt-qp-pps / no-opt-ref-list-length-pps / no-multi-pass-opt-rps / scenecut-bias=0.05 / no-opt-cu-delta-qp / no-aq-motion / no-hdr10 / no-hdr10-opt / no-dhdr10-opt / no-idr-recovery-sei / analysis-reuse-level=0 / analysis-save-reuse-level=0 / analysis-load-reuse-level=0 / scale-factor=0 / refine-intra=0 / refine-inter=0 / refine-mv=1 / refine-ctu-distortion=0 / no-limit-sao / ctu-info=0 / no-lowpass-dct / refine-analysis-type=0 / copy-pic=1 / max-ausize-factor=1.0 / no-dynamic-refine / no-single-sei / no-hevc-aq / no-svt / no-field / qp-adaptation-range=1.00 / scenecut-aware-qp=0conformance-window-offsets / right=0 / bottom=0 / decoder-max-rate=0 / no-vbv-live-multi-pass / no-mcstf / no-sbrc Language : Chinese Default : Yes Forced : No Audio ID : 2 Format : E-AC-3 Format/Info : Enhanced AC-3 Commercial name : Dolby Digital Plus Format profile : Blu-ray Disc Format settings : Dolby Surround EX Codec ID : A_EAC3 Duration : 2 h 18 min Bit rate mode : Constant Bit rate : 1 024 kb/s Channel(s) : 8 channels Channel layout : L R C LFE Ls Rs Lb Rb Sampling rate : 48.0 kHz Frame rate : 31.250 FPS (1536 SPF) Compression mode : Lossy Stream size : 1 011 MiB (14%) Title : EAC3 1024 Kbps 7.1 By Omar Language : Chinese Service kind : Complete Main Default : Yes Forced : No Text #1 ID : 3 Format : PGS Muxing mode : zlib Codec ID : S_HDMV/PGS Codec ID/Info : Picture based subtitle format used on BDs/HD-DVDs Duration : 2 h 13 min Bit rate : 23.6 kb/s Frame rate : 0.421 FPS Count of elements : 3375 Stream size : 22.5 MiB (0%) Title : CHINESE-1-PGS Sub (Untouched) Language : Chinese Default : Yes Forced : No Text #2 ID : 4 Format : PGS Muxing mode : zlib Codec ID : S_HDMV/PGS Codec ID/Info : Picture based subtitle format used on BDs/HD-DVDs Duration : 2 h 13 min Bit rate : 21.9 kb/s Frame rate : 0.421 FPS Count of elements : 3375 Stream size : 20.9 MiB (0%) Title : CHINESE-2-PGS Sub (Untouched) Language : Chinese Default : Yes Forced : No Text #3 ID : 5 Format : PGS Muxing mode : zlib Codec ID : S_HDMV/PGS Codec ID/Info : Picture based subtitle format used on BDs/HD-DVDs Duration : 2 h 13 min Bit rate : 24.2 kb/s Frame rate : 0.421 FPS Count of elements : 3375 Stream size : 23.2 MiB (0%) Title : ENGLISH-PGS Sub (Untouched) Language : English Default : Yes Forced : No Menu 00:00:00.000 : zh:Chapter 01 00:10:35.375 : zh:Chapter 02 00:21:40.583 : zh:Chapter 03 00:30:53.208 : zh:Chapter 04 00:43:05.792 : zh:Chapter 05 00:56:00.958 : zh:Chapter 06 01:07:06.417 : zh:Chapter 07 01:18:26.500 : zh:Chapter 08 01:29:16.833 : zh:Chapter 09 01:45:35.625 : zh:Chapter 10 01:59:31.625 : zh:Chapter 11 02:13:39.000 : zh:Chapter 12 02:18:04.167 : zh:Chapter 13 ```

File list

  • [Anime Land] Bursting Point (2023) (BDRip 1080p HEVC EAC3) CHINESE [F6A71D77].mkv (6.9 GiB)