The.Concierge.2023.MULTi.1080p.WEB.H264-FW (VOSTFR, VF, Hokkyoku Hyakkaten no Concierge-san, Le Grand Magasin, The Concierge at Hokkyoku Department Store) :: Nyaa ISS

The.Concierge.2023.MULTi.1080p.WEB.H264-FW (VOSTFR, VF, Hokkyoku Hyakkaten no Concierge-san, Le Grand Magasin, The Concierge at Hokkyoku Department Store)

Category:
Date:
2024-05-16 21:33 UTC
Submitter:
Anonymous
Seeders:
19
Information:
No information.
Leechers:
1
File size:
4.2 GiB
Completed:
602
Info hash:
9f5987c058d2a97163ef9b2a551bd026c33b328a
Plus d’infos : https://www.nautiljon.com/animes/hokkyoku+hyakkaten+no+concierge-san.html Lien de téléchargement : https://multiup.io/download/bfda0e1de298c0f8423fbbc4b4aaee3d NFO : General Unique ID : 121143723540166236693548928316009665291 (0x5B236EB69EAD5893C1BC4E6B061CD30B) Complete name : The.Concierge.2023.MULTi.1080p.WEB.H264-FW.mkv Format : Matroska Format version : Version 4 File size : 4.17 GiB Duration : 1 h 10 min Overall bit rate : 8 505 kb/s Frame rate : 24.000 FPS Movie name : Le grand magasin (2023) Encoded date : 2024-05-16 07:21:52 UTC Writing application : mkvmerge v83.0 ('Circle Of Friends') 64-bit Writing library : libebml v1.4.5 + libmatroska v1.7.1 Video ID : 1 Format : AVC Format/Info : Advanced Video Codec Format profile : High@L4 Format settings : CABAC / 4 Ref Frames Format settings, CABAC : Yes Format settings, Reference frames : 4 frames Codec ID : V_MPEG4/ISO/AVC Duration : 1 h 10 min Bit rate mode : Constant Bit rate : 7 222 kb/s Nominal bit rate : 10 000 kb/s Width : 1 920 pixels Height : 1 080 pixels Display aspect ratio : 16:9 Frame rate mode : Constant Frame rate : 24.000 FPS Color space : YUV Chroma subsampling : 4:2:0 Bit depth : 8 bits Scan type : Progressive Bits/(Pixel*Frame) : 0.145 Stream size : 3.54 GiB (85%) Default : Yes Forced : No Color range : Limited Color primaries : BT.709 Transfer characteristics : BT.709 Matrix coefficients : BT.709 Audio #1 ID : 2 Format : E-AC-3 Format/Info : Enhanced AC-3 Commercial name : Dolby Digital Plus Codec ID : A_EAC3 Duration : 1 h 10 min Bit rate mode : Constant Bit rate : 640 kb/s Channel(s) : 6 channels Channel layout : L R C LFE Ls Rs Sampling rate : 48.0 kHz Frame rate : 31.250 FPS (1536 SPF) Compression mode : Lossy Stream size : 321 MiB (8%) Title : VFF Language : French (FR) Service kind : Complete Main Default : Yes Forced : No Audio #2 ID : 3 Format : E-AC-3 Format/Info : Enhanced AC-3 Commercial name : Dolby Digital Plus Codec ID : A_EAC3 Duration : 1 h 10 min Bit rate mode : Constant Bit rate : 640 kb/s Channel(s) : 6 channels Channel layout : L R C LFE Ls Rs Sampling rate : 48.0 kHz Frame rate : 31.250 FPS (1536 SPF) Compression mode : Lossy Stream size : 321 MiB (8%) Title : JP Language : Japanese (JP) Service kind : Complete Main Default : No Forced : No Text #1 ID : 4 Format : UTF-8 Codec ID : S_TEXT/UTF8 Codec ID/Info : UTF-8 Plain Text Duration : 1 h 7 min Bit rate : 0 b/s Frame rate : 0.001 FPS Count of elements : 3 Stream size : 112 Bytes (0%) Title : VFF Forced Language : French (FR) Default : Yes Forced : Yes Text #2 ID : 5 Format : UTF-8 Codec ID : S_TEXT/UTF8 Codec ID/Info : UTF-8 Plain Text Duration : 1 h 8 min Bit rate : 66 b/s Frame rate : 0.248 FPS Count of elements : 1013 Stream size : 33.2 KiB (0%) Title : VFF Language : French (FR) Default : No Forced : No

File list