Capricciosa.Orange.Road.Il.Film.Vorrei.tornare.a.quel.giorno.1988.1080p.h265.WEB-DL.MULTi.italian.japanese :: Nyaa ISS

Capricciosa.Orange.Road.Il.Film.Vorrei.tornare.a.quel.giorno.1988.1080p.h265.WEB-DL.MULTi.italian.japanese

Category:
Date:
2024-05-16 22:22 UTC
Submitter:
Seeders:
2
Information:
No information.
Leechers:
0
File size:
2.3 GiB
Completed:
55
Info hash:
b4cac79a077e4654c13db4820f19711fb9749bcc
![https://i.ibb.co/MBHdbww/titolo.png](https://i.ibb.co/MBHdbww/titolo.png) ## Capricciosa Orange Road - Il Film: Vorrei tornare a quel giorno (1988) ![https://i.ibb.co/18cYWXH/locandina.png](https://i.ibb.co/18cYWXH/locandina.png) ![https://www.myutaku.com/media/anime/poster/2252.jpg](https://www.myutaku.com/media/anime/poster/2252.jpg) ![https://i.ibb.co/K54kwxk/scheda.png](https://i.ibb.co/K54kwxk/scheda.png) Titolo originale: きまぐれオレンジ☆ロード あの日にかえりたい Paese di produzione: Giappone Anno: 1988 Genere: Romantico, drammatico Regia: Tomomi Mochizuki Durata: ca. 68 minuti ![https://i.ibb.co/VMdNkF0/cast.png](https://i.ibb.co/VMdNkF0/cast.png) Giapponese (1988) Tōru Furuya: Kyōsuke Kasuga Hiromi Tsuru: Madoka Ayukawa Eriko Hara: Hikaru Hiyama Michie Tomizawa: Manami Kasuga Chieko Honda: Kurumi Kasuga Kei Tomiyama: Takashi Kasuga Ken'ichi Ogata: Jingoro Yūsaku Yara: Master Keiichi Nanba: Seiji Komatsu Naoki Tatsuta: Kazuya Hatta Eiko Yamada: Yukari Maria Kawamura: Sorella di Madoka Chiyoko Kawashima: Madre di Hikaru Kōichi Yamadera: Docente Italiano (2023) Davide Garbolino: Kyōsuke Kasuga Marcella Silvestri: Madoka Ayukawa Elisabetta Spinelli: Hikaru Hiyama Emanuela Pacotto: Manami Kasuga Debora Magnaghi: Kurumi Kasuga Giorgio Bonino: Takashi Kasuga Massimo Di Benedetto: Jingoro Stefano Albertini: Master Felice Invernici: Seiji Komatsu Aldo Stella: Kazuya Hatta Daniela Fava: Sorella di Madoka Cinzia Massironi: Madre di Hikaru Patrizia Mottola: Yoko Patrizio Prata: Kobayashi ![https://i.ibb.co/w6JScsG/trama.png](https://i.ibb.co/w6JScsG/trama.png) Kyosuke e Madoka sono arrivati alla fine delle scuole medie superiori e si preparano alle prove d'ammissione per entrare all'Università. Dopo anni di esitazioni e titubanze, Kyosuke decide finalmente di fare una scelta fra le due ragazze che provano sentimenti per lui. ![https://i.ibb.co/yY58kgZ/screenshots.png](https://i.ibb.co/yY58kgZ/screenshots.png) ![https://i.imgur.com/kTh4ONS.png](https://i.imgur.com/kTh4ONS.png) ![https://i.ibb.co/hYKmtzS/media-info.png](https://i.ibb.co/hYKmtzS/media-info.png) General Unique ID : 120537151414483417861410809864321280066 (0x5AAE9C660A9D7098E25CEA6A720CA842) Complete name : Capricciosa Orange Road - Il Film Vorrei tornare a quel giorno.mkv Format : Matroska Format version : Version 4 File size : 2.26 GiB Duration : 1 h 8 min Overall bit rate : 4 687 kb/s Frame rate : 23.976 FPS Movie name : Capricciosa Orange Road - Il film: Vorrei tornare a quel giorno Description : Kyosuke e Madoka sono arrivati alla fine delle scuole medie superiori e si preparano alle prove d'ammissione per entrare all'Università. Dopo anni di esitazioni e titubanze, Kyosuke decide finalmente di fare una scelta fra le due ragazze che provano sentimenti per lui. Encoded date : 2024-05-12 23:16:34 UTC Writing application : mkvmerge v84.0 ('Sleeper') 64-bit Writing library : libebml v1.4.5 + libmatroska v1.7.1 / Lavf60.3.100 Cover : Yes Attachments : cover.png DATE : 1988 GENRE : Drammatici;Anime;Romantici SHOW : Capricciosa Orange Road - Il film: Vorrei tornare a quel giorno Video ID : 1 Format : HEVC Format/Info : High Efficiency Video Coding Format profile : Main@L4@Main Codec ID : V_MPEGH/ISO/HEVC Duration : 1 h 8 min Bit rate : 4 300 kb/s Width : 1 920 pixels Height : 1 040 pixels Display aspect ratio : 1.85:1 Frame rate mode : Constant Frame rate : 23.976 (24000/1001) FPS Standard : NTSC Color space : YUV Chroma subsampling : 4:2:0 Bit depth : 8 bits Bits/(Pixel*Frame) : 0.090 Stream size : 2.07 GiB (92%) Writing library : HEVC Coding Default : Yes Forced : No Color range : Limited Color primaries : BT.709 Transfer characteristics : BT.709 Matrix coefficients : BT.709 VENDOR_ID : [0][0][0][0] Audio #1 ID : 2 Format : AAC LC Format/Info : Advanced Audio Codec Low Complexity Codec ID : A_AAC-2 Duration : 1 h 8 min Bit rate : 128 kb/s Channel(s) : 2 channels Channel layout : L R Sampling rate : 48.0 kHz Frame rate : 46.875 FPS (1024 SPF) Compression mode : Lossy Stream size : 63.1 MiB (3%) Title : Italiano Language : Italian Default : Yes Forced : No VENDOR_ID : [0][0][0][0] Audio #2 ID : 3 Format : AC-3 Format/Info : Audio Coding 3 Commercial name : Dolby Digital Codec ID : A_AC3 Duration : 1 h 8 min Bit rate mode : Constant Bit rate : 256 kb/s Channel(s) : 2 channels Channel layout : L R Sampling rate : 48.0 kHz Frame rate : 31.250 FPS (1536 SPF) Compression mode : Lossy Delay relative to video : 8 s 105 ms Stream size : 126 MiB (5%) Title : Giapponese Language : Japanese Service kind : Complete Main Default : No Forced : No Text ID : 4 Format : UTF-8 Codec ID : S_TEXT/UTF8 Codec ID/Info : UTF-8 Plain Text Duration : 1 h 8 min Bit rate : 76 b/s Frame rate : 0.222 FPS Count of elements : 915 Stream size : 38.4 KiB (0%) Title : Italiano Language : Italian Default : No Forced : No ![https://i.ibb.co/VT9y7k0/seed-e-banda.png](https://i.ibb.co/VT9y7k0/seed-e-banda.png) Continuo 300 KiB/s

File list

  • Capricciosa Orange Road - Il Film Vorrei tornare a quel giorno.mkv (2.3 GiB)